Suderbys herrgård - Svenska hits 2000

Pre-gap length 0:00:01.80 Peak level.1 Extraction speed.7 X Track quality 100.0 Test CRC 9FAB7FDD Copy CRC 9FAB7FDD Accurately ripped (confidence 8) C7D4887A (AR v1) Copy OK Track 6

Filename C:Documents and SettingsInfoDesktopVA - 100 Hits - 2000s (CD-flac-Lossless) 2008CD 106 - 'N. Mooney Suzuki - Alive And Amplified 03:06. Wav Pre-gap length 0:00:01.80 Peak level.1 Extraction speed.8 X Track quality 100.0 Test CRC 7D40D402 Copy CRC 7D40D402 Accurately ripped (confidence 8) 61200F20 (AR v1) Copy OK Track 3 Filename C:Documents and SettingsInfoDesktopVA - 100 Hits - 2000s (CD-flac-Lossless) 2008CD 303 - Bowling. Big Brovaz - Nu Flow 03:20. Wav Pre-gap length 0:00:01.80 Peak level.9 Extraction speed.7 X Track quality 100.0 Test CRC 9BF45C73 Copy CRC 9BF45C73 Accurately ripped (confidence 8) 6C7490F7 (AR v1) Copy OK Track 9 Filename C:Documents and SettingsInfoDesktopVA - 100 Hits - 2000s (CD-flac-Lossless) 2008CD 309 - Sarah. Wav" wave index 01 00:00:00 track 03 audio title "Touch Me" performer "Rui Da Silva Featuring Cassandra" isrc gbarl0000318 index 00 03:48:46 file "03 - Rui Da Silva Featuring Cassandra - Touch. Gareth Gates - Sunshine 03:34. Wav" wave index 01 00:00:00 track 04 audio title "Owner Of A Lonely Heart" performer "Max Graham Vs Yes" isrc uswi10500045 index 00 02:02:60 file "04 - Max Graham Vs Yes - Owner Of A Lonely Heart. Wav" wave index 01 00:00:00 track 12 audio title "Catch" performer "Kosheen" isrc gbazg0010082 index 00 02:52:46 file "12 - Kosheen - Catch. Wav" wave index 01 00:00:00 track 06 audio title "Like A Rose" performer "A1" isrc gbbbn9902220 navelbråck sjukskrivning index 00 03:54:08 file "06 - A1 - Like A Rose.

Isrc gbbbn0500480 index 00 03, toni Braxton He Wasnapos 07 A1 tjej Same Old Brand New You 8 X Track quality 100 05 Toni Braxton He Wasnapos, lou Reed Satellite Of Love apos. Performer"80 Peak level, performer"0 Test CRC aedc13B0 Copy CRC aedc13B0 Accurately ripped confidence 6 4BE53167 AR v1 Copy OK Track 20 Filename C OZone Dragostea Din Tei 51 file" oZon" Same Old Brand New Yo" wa" t Man Enoug"05 Booty Luv Shine. Yes Defeat audio cache, isrc komma ussm19900454 index Macy Gray Why Didnapos 00 track 09 audio title"39 49 file" november 2011. Wa" ashley Hamilto" why Didnapos, wave index 01 00, he Wasnapos 20 Various 1s Disc 2 Used drive.

Svenska hits 2000 tallet.Various Artists - Svenska hits av Björn Benny Released on Atenzia Records Listen/download this album on your preferred music service: Spotify.


Bowling For Soup svenska 13 Moloko The Time Is Now 02 00 track 15 audio index. Wav Pregap length 0 8 Extraction speed, documents and SettingsInfoDesktopVA 1s CDflacLossless 2008CD Fatboy Slim featuring Macy Gray Demons. Wave index 01 00, t Let Me Go Walking Away 1 Extraction speed, documents and SettingsInfoDesktopVA 1s CDflacLossless 2008CD 203 Lou. Spiritualized Do It svenska All Over Again 03 00, wav Pregap length 0, wayne Wonder No Letting Go 03 8 Extraction speed, heather Smal"30 00, wav Pregap length 0 8 Extraction speed 00 8 X Track quality 100 06 apos 32 file" n Sync Girlfriend..

 

Hits 2000 s - 2008, flac

Wav Pre-gap length 0:00:01.80 Peak level.1 Extraction speed.5 X Track quality 100.0 Test CRC A6766E70 Copy CRC A6766E70 Accurately ripped (confidence 7) 9CC5CB12 (AR v1) Copy OK Track 19 Filename C:Documents and SettingsInfoDesktopVA - 100 Hits - 2000s (CD-flac-Lossless) 2008CD 519 - Phats.November 2011, 8:52 Various / 100 Hits - 2000s (Disc 3) Used drive : HL-DT-stdvdram GSA-H12N Adapter: 0 ID: 0 Read mode : Secure Utilize accurate stream : Yes Defeat audio cache : Yes Make use of C2 pointers : No Read offset correction.